Begum Jaan 2017 Hindi 720p HDCam x264 Aac By Sam

seeders: 1108
leechers: 222
updated:
Added by makintos13 in TV
Torrent verified.

Begum Jaan 2017 Hindi 720p HDCam x264 Aac By Sam (Size: 795.99 MiB )
thepiratebay.org | 502: Bad gateway Health & Fitness | Ostatní - E-Books | The Goldbergs

Error 502 Ray ID: 3578c8972bfc68c6 • 2017-04-30 07:28:19 UTC

Bad gateway

You

Browser

Working
Paris

Cloudflare

Working
thepiratebay.org

Host

Error

What happened?

The web server reported a bad gateway error.

What can I do?

Please try again in a few minutes.

Description

screens:
 
http://imgmak.com/x7I
 
http://imgmak.com/x7q
 
http://imgmak.com/x7t
 
http://imgmak.com/x72
 
http://imgmak.com/x7F
 
http://imgmak.com/x7i
 
http://imgmak.com/x7j
 
http://imgmak.com/x7w

Video 
ID                          : 1 
Format                      : AVC 
Format/Info                 : Advanced Video Codec 
Format profile              : [email protected] 
Format settings, CABAC      : Yes 
Format settings, ReFrames   : 4 frames 
Codec ID                    : V_MPEG4/ISO/AVC 
Duration                    : 2 h 8 min 
Bit rate                    : 799 kb/s 
Width                       : 1 280 pixels 
Height                      : 544 pixels 
Display aspect ratio        : 2.35:1 
Frame rate mode             : Constant 
Frame rate                  : 29.970 (30000/1001) FPS 
Color space                 : YUV 
Chroma subsampling          : 4:2:0 
Bit depth                   : 8 bits 
Scan type                   : Progressive 
Bits/(Pixel*Frame)          : 0.038 
Stream size                 : 735 MiB (92%) 
Writing library             : x264 core 148 r2638 7599210 
Default                     : Yes 
Forced                      : No 

Audio 
ID                          : 2 
Format                      : AAC 
Format/Info                 : Advanced Audio Codec 
Format profile              : LC 
Codec ID                    : A_AAC 
Duration                    : 2 h 8 min 
Bit rate                    : 64.0 kb/s 
Channel(s)                  : 2 channels 
Channel positions           : Front: L R 
Sampling rate               : 48.0 kHz 
Frame rate                  : 46.875 FPS (1024 spf) 
Compression mode            : Lossy 
Stream size                 : 58.9 MiB (7%) 
Default                     : Ye

Sharing Widget


Download torrent
795.99 MiB 
seeders:1108
leechers:222
Begum Jaan 2017 Hindi 720p HDCam x264 Aac By Sam



To share this torrent use the code below and insert it into comments, status messages, forum posts or your signature.

Torrent: Begum Jaan 2017 Hindi 720p HDCam x264 Aac By Sam

Trackers

tracker name
udp://tracker.coppersurfer.tk:6969/announce
udp://9.rarbg.me:2710/announce
udp://p4p.arenabg.ch:1337/announce
udp://tracker.leechers-paradise.org:6969/announce
udp://eddie4.nl:6969/announce
udp://thetracker.org:80/announce
udp://tracker.coppersurfer.tk:6969
udp://explodie.org:6969/announce
udp://tracker.aletorrenty.pl:2710/announce
udp://9.rarbg.to:2710/announce
udp://torrent.gresille.org:80/announce
udp://tracker.opentrackr.org:1337/announce
udp://tracker.piratepublic.com:1337/announce
udp://tracker.sktorrent.net:6969/announce
udp://zer0day.ch:1337/announce
??Torrent compatible trackers list

Locations

name
KickassTorrents
Torrent hash: 256BE98D75D8E7CC1E546480F75771E44705A70C

All Comments

audio
0/10
video
0/10
please, leave only comments related to that torrent
Sign In

Report a bug Open chat