Patriots.Day.2016.DVDSCREENER-P2P

seeders: 177
leechers: 8
updated:
Added by makintos13 in TV
Torrent verified.

Patriots.Day.2016.DVDSCREENER-P2P (Size: 852.79 MiB )
Patriots.Day.2016.DVDSCREENER-P2P.mp4852.79 MiB

Description

Screens:
 
http://imgmak.com/RMN
 
http://imgmak.com/RMQ
 
http://imgmak.com/RMS
 
http://imgmak.com/RMZ
 
http://imgmak.com/RMc
 
http://imgmak.com/RMn
 
http://imgmak.com/RMr
 
http://imgmak.com/RMB
 
http://imgmak.com/RMI
 
http://imgmak.com/RMq


 
http://www.imdb.com/title/tt4572514/


An account of Boston Police Commissioner Ed Davis's actions in the events leading up to the 2013 Boston Marathon bombing and the aftermath, which includes the city-wide manhunt to find the terrorists behind it.

Director: Peter Berg
Writers: Peter Berg (screenplay), Matt Cook (screenplay)
Stars: Mark Wahlberg, Michelle Monaghan, J.K. Simmons
Genres: Drama | History | Thriller
Country: USA
Language: English


Complete name : Patriots.Day.2016.DVDSCREENER-P2P

Format : MPEG-4

Format profile : Base Media / Version 2

Codec ID : mp42 (isom/iso2/avc1/mp41)

File size : 853 MiB

Duration : 2 h 13 min

Overall bit rate mode : Variable

Overall bit rate : 895 kb/s

Movie name : Title 1

Performer : DVD

Encoded date : UTC 2017-01-12 08:58:48

Tagged date : UTC 2017-01-12 08:58:48

Writing application : HandBrake 0.10.5 2016021100

ID : 1

Format : AVC

Format/Info : Advanced Video Codec

Format profile : [email protected]

Format settings, CABAC : Yes

Format settings, ReFrames : 4 frames

Codec ID : avc1

Codec ID/Info : Advanced Video Coding

Duration : 2 h 13 min

Bit rate : 768 kb/s

Width : 720 pixels

Height : 356 pixels

Display aspect ratio : 2.40:1

Frame rate mode : Variable

Frame rate : 29.970 (29970/1000) FPS

Minimum frame rate : 29.960 FPS

Maximum frame rate : 29.970 FPS

Color space : YUV

Chroma subsampling : 4:2:0

Bit depth : 8 bits

Scan type : Progressive

Bits/(Pixel*Frame) : 0.100

Stream size : 728 MiB (85%)

Writing library : x264 core 142 r2491 24e4fed

ID : 2

Format : AAC

Format/Info : Advanced Audio Codec

Format profile : LC

Codec ID : 40

Duration : 2 h 13 min

Bit rate mode : Variable

Bit rate : 125 kb/s

Channel(s) : 2 channels

Channel positions : Front: L R

Sampling rate : 44.1 kHz

Frame rate : 43.066 FPS (1024 spf)

Compression mode : Lossy

Stream size : 119 MiB (14%)

Title : Stereo / Stereo

Default : Yes

Alternate group : 1

Encoded date : UTC 2017-01-12 08:58:48

Tagged date : UTC 2017-01-12 08:58:48

Sharing Widget


Download torrent
852.79 MiB 
seeders:177
leechers:8
Patriots.Day.2016.DVDSCREENER-P2P



To share this torrent use the code below and insert it into comments, status messages, forum posts or your signature.

Torrent: Patriots.Day.2016.DVDSCREENER-P2P

Trackers

tracker name
udp://tracker.coppersurfer.tk:6969/announce
udp://9.rarbg.me:2710/announce
udp://p4p.arenabg.ch:1337/announce
udp://tracker.leechers-paradise.org:6969/announce
udp://eddie4.nl:6969/announce
udp://thetracker.org:80/announce
udp://tracker.coppersurfer.tk:6969
udp://explodie.org:6969/announce
udp://tracker.aletorrenty.pl:2710/announce
udp://9.rarbg.to:2710/announce
udp://torrent.gresille.org:80/announce
udp://tracker.opentrackr.org:1337/announce
udp://tracker.piratepublic.com:1337/announce
udp://tracker.sktorrent.net:6969/announce
udp://zer0day.ch:1337/announce
??Torrent compatible trackers list

Locations

name
KickassTorrents
Torrent hash: BDBAF82F6CFE804BA9B016A366472654E9D43BD5

All Comments

audio
0/10
video
0/10
please, leave only comments related to that torrent
Sign In

jokerls
grimoro, this is a better release than your scam site will ever provide.

Usual, good quality screener. Thanks, makintos13!
Report a bug Open chat