The Boss Baby 2017 720p CAM x264 AC3 TiTAN

seeders: 1255
leechers: 111
updated:
Added by xxxlavalxxx in TV
Torrent verified.

The Boss Baby 2017 720p CAM x264 AC3 TiTAN (Size: 1.57 GiB )
The Boss Baby 2017 720p CAM x264 AC3 TiTAN.mkv1.57 GiB
The Boss Baby 2017 720p CAM x264 AC3 TiTAN.nfo2.46 KiB
Torrent Downloaded From ExtraTorrent.cc.txt338 B

Description

 http://extraimage.net/image/2vP9
 
http://www.imdb.com/title/tt3874544/

Source: 720p CAM -THX

General

Format                      : Matroska
Format version              : Version 2
File size                   : 1.57 GiB
Duration                    : 1 h 37 min
Overall bit rate mode       : Variable
Overall bit rate            : 2 294 kb/s
Encoded date                : UTC 2017-04-07 17:33:50
Writing application         : mkvmerge v8.5.2 ('Crosses') 32bit
Writing library             : libebml v1.3.3 + libmatroska v1.4.4

Video
ID                          : 1
Format                      : AVC
Format/Info                 : Advanced Video Codec
Format profile              : High [email protected]
Format settings, CABAC      : Yes
Format settings, ReFrames   : 3 frames
Codec ID                    : V_MPEG4/ISO/AVC
Duration                    : 1 h 37 min
Bit rate mode               : Variable
Bit rate                    : 2 100 kb/s
Maximum bit rate            : 40.0 Mb/s
Width                       : 1 264 pixels
Height                      : 512 pixels
Display aspect ratio        : 2.469
Frame rate mode             : Constant
Frame rate                  : 23.976 (24000/1001) FPS
Color space                 : YUV
Chroma subsampling          : 4:2:0
Bit depth                   : 10 bits
Scan type                   : Progressive
Bits/(Pixel*Frame)          : 0.135
Stream size                 : 1.43 GiB (92%)
Default                     : Yes
Forced                      : No
Color range                 : Full
Color primaries             : BT.709
Transfer characteristics    : BT.709
Matrix coefficients         : BT.709

Audio
ID                          : 2
Format                      : AC-3
Format/Info                 : Audio Coding 3
Mode extension              : CM (complete main)
Format settings, Endianness : Big
Codec ID                    : A_AC3
Duration                    : 1 h 37 min
Bit rate mode               : Constant
Bit rate                    : 192 kb/s
Channel(s)                  : 2 channels
Channel positions           : Front: L R
Sampling rate               : 44.1 kHz
Frame rate                  : 28.711 FPS (1536 spf)
Compression mode            : Lossy
Stream size                 : 134 MiB (8%)
Default                     : Yes
Forced                      : No
 
http://extraimage.net/image/2vPP 
http://extraimage.net/image/2vPG 
http://extraimage.net/image/2vPX 
http://extraimage.net/image/2vPg 
http://extraimage.net/image/2vP5

Sharing Widget


Download torrent
1.57 GiB 
seeders:1255
leechers:111
The Boss Baby 2017 720p CAM x264 AC3 TiTAN



To share this torrent use the code below and insert it into comments, status messages, forum posts or your signature.

Torrent: The Boss Baby 2017 720p CAM x264 AC3 TiTAN

Trackers

tracker name
udp://tracker.coppersurfer.tk:6969/announce
udp://9.rarbg.me:2710/announce
udp://p4p.arenabg.ch:1337/announce
udp://tracker.leechers-paradise.org:6969/announce
udp://eddie4.nl:6969/announce
udp://thetracker.org:80/announce
udp://tracker.coppersurfer.tk:6969
udp://explodie.org:6969/announce
udp://tracker.aletorrenty.pl:2710/announce
udp://9.rarbg.to:2710/announce
udp://torrent.gresille.org:80/announce
udp://tracker.opentrackr.org:1337/announce
udp://tracker.piratepublic.com:1337/announce
udp://tracker.sktorrent.net:6969/announce
udp://zer0day.ch:1337/announce
??Torrent compatible trackers list

Locations

name
KickassTorrents
Torrent hash: E391D4DA80D0BB84262073A3F48A48275D9D9DD1

All Comments

audio
0/10
video
0/10
please, leave only comments related to that torrent
Sign In

kr0x
@azssaaa-bcbtrgtregd
Dont act Mother F*cker..
if there is any release, wat do you think, they dont upld? uh?..
Stop spreading those Scams you F*cker...
azp928
Thanks!
laimemm
Ehhh another bad early release. I dont get why ppl dont go to

http://showtime.weysti.stream

and download movies and put on torrent, it has best quality i have seen and
it is also dmca protected. You can even put subs. I hope i helped your movie life a little :)
azmatre
@laimemm, thank you, dont get why people just dont watch it here http://showtime.weysti.stream, the quality is awesome and it works perfect, cheers :))
Report a bug Open chat